Премини към съдържанието

skandi

Потребител
  • Публикации

    137
  • Регистрация

  • Последно онлайн

Харесвания

0 Неутрална репутация

2 Последователи

Всичко за skandi

  • Титла
    Редовен потребител
  • Рожден ден 26.10.1990

Информация

  • Пол
    Жена
  • Град
    МаЙнА тАуН :P
  1. skandi

    Guide: Как да сложим българско меню на телефон Nokia

    N73 Music Edition /RM-133 ============ 0539285 Работи идеално! Благодаря http://www.kaldata.com/forums/public/style_emoticons/<#EMO_DIR#>/kiss.gif
  2. Здравейте! Някой има ли възможност (ако не го затруднявам) да ми даде една покана за hdbits.org? Прилагам скрийншот за да видите че съм сериозен сийдър Email: skandity@abv.bg
  3. Здравейте! Искам да ви попитам някой случайно да знае някаква програма за добавяне на текст, който да се движи от единия край на екрана до другия (точно както са новините). Става въпрос за едни mpg файлове, на които искам да добавя такива новини, но в никакъв случай да не се разваля качеството или да го преконвертирам в друг формат. Ако е бърза ще е и в плюс... Твърде много искам,нали? Ще се радвам ако някой може да ми помогне. Благодаря предварително!
  4. Здравейте! Ако на някой му се откъсне от сърцето една покана за hdbits.org и TorrentLeech.org ще му бъда адски благодарна. P.S Ето ви скрийншот от друг сайт,за да видите че ъплоудвам Мерси предварително E-mail: skandity@abv.bg без име.bmp
  5. skandi

    Guide: Как да сложим българско меню на телефон Nokia

    А код за 7900 prizma намира ли ви се ?
  6. Здравейте! Търся програма,която да извлича информация от даден филм или клип. Нещо подобно на това: Format : AVI Format/Info : Audio Video Interleave File size : 1.13 GiB Duration : 1h 28mn Overall bit rate : 1 823 Kbps Writing application : VirtualDubMod 1.5.10.2 (build 2540/release) Writing library : VirtualDubMod build 2540/release Video Format : MPEG-4 Visual Format profile : Streaming Video@L1 Format settings, BVOP : Yes Format settings, QPel : Yes Format settings, GMC : 3 warppoints Format settings, Matrix : Default Muxing mode : Packed bitstream Codec ID : XVID Codec ID/Hint : XviD Duration : 1h 28mn Bit rate : 1 429 Kbps Width : 720 pixels Height : 400 pixels Display aspect ratio : 16/9 Frame rate : 23.976 fps Resolution : 24 bits Colorimetry : 4:2:0 Scan type : Progressive Bits/(Pixel*Frame) : 0.207 Stream size : 905 MiB (78%) Writing library : XviD 1.2.0.dev47 (UTC 2006-11-01) Audio Format : AC-3 Format/Info : Audio Coding 3 Codec ID : 2000 Duration : 1h 28mn Bit rate mode : Constant Bit rate : 384 Kbps Channel(s) : 2 channels Channel positions : L R Sampling rate : 48.0 KHz Stream size : 243 MiB (21%) Alignment : Split accross interleaves Interleave, duration : 42 ms (1.00 video frame) Interleave, preload duration : 500 ms
  7. Става също и като го свалиш с Download Helper и направо от Flv файл да го направиш на качествена mp3-ка с DVDVideoSoft Free Studio. Хубавото на тази програмка е че от абсолютно всички видео формати извлича аудиото, a най-вече че е безплатна. Също можеш да режеш аудио и видео, да преработваш от видео в JPG и още много гъзарийки Успех!
  8. И аз ще се наредя на опашката за покани, пък дано някой се смили да прати една и на мен E-mail: murra_@abv.bg
  9. И за мен ако може една за www.hd-torrents.org Мерси предварително E-mail: murra_@abv.bg
  10. skandi

    Искам покана за bit-hdtv.com

    Ще може ли и за мен една покана за http://www.bit-hdtv.com/ и за http://hd-torrents.org/, ако вече не съм нахална де... e-mail: murra_@abv.bg Ето ми и коефициента в друг тракер Един вид да видите,че съм сериозна и ще поддържам добър коефициент P.S Вече за http://hd-torrents.org/ си намерих, мерси много
  11. skandi

    Проблем с монитор Acer

    Оле мерси много!!! Стана!!!
  12. skandi

    Проблем с монитор Acer

    NVIDIA GeForce 9600 GT, и софтуера ми е от диска,признавам... Честотата ми е точно 60 херца,то повече не може и да е.Или 59 или 60.Ама за връзките не ги знам.
  13. skandi

    Проблем с монитор Acer

    Не може да имам изгорели пиксели,защото първо че монитора е на няма и два месеца и второ-това,което не виждам е просто защото все едно екрана се е вдигнал малко нагоре...не знам как да го обясня...
  14. Здравейте! Напоследък при мен се появи един много странен проблем с монитора.Най-горният ми ред икони се виждат почти наполовина.Когато обаче направя скрийншот,всичко си е нормално... Ето горе долу за да добиете представа съм качила 2 скрийншота.Над зеленото просто не се вижда. Резолюцията ми е 1680 на 1050 пиксела.Монитора ми е Acer 22" TFT P221 wide 5ms 2500:1 (каквото и да значи това).Ако искате някаква допълнителна информация ще дам,само да си видя екрана...ако може целия...
  15. skandi

    Триене на администраторски акаунт?

    Благодаря ти много!Стана
  • Разглеждащи това в момента   0 потребители

    Няма регистрирани потребители разглеждащи тази страница.

×

Информация

Поставихме бисквитки на устройството ви за най-добро потребителско изживяване. Можете да промените настройките си за бисквитки, или в противен случай приемаме, че сте съгласни с нашите условия за ползване.