Премини към съдържанието

Препоръчан отговор


Здравейте,колеги купихси декодер DV3T всичко е наред телевизията си върви,но имам проблем като сложа flash памет картина върви идеално но звук няма свързване е с чинчоже кам телевизора проблема е там,че като пусна някакв сериал на flasha имам звук и картина,а като пусна фюлм на flash няма звук като фюлма е 700MG.Рестартирвахго смених кабела с нов но нищо ако можете помогнете

Сподели този отговор


Линк към този отговор
Сподели в други сайтове

Прочетете книжката на декодера , какви звукови формати му поддържа плеера и във какъв се опитвате да пуснете филма - ако си мислите че тая тояга ще пусне DTS звук - се лъжете . Проверявайте филмите които сваляте с какъв звук са .

Сподели този отговор


Линк към този отговор
Сподели в други сайтове

Здравейте,колеги формата които пускам е mp4 и с AV формат съм пробвал който и сериал да пусна трагваси звук и картина,а на фюлм само картина като формата на сериалите е mp4.Ще погледна книшката и ще докладвам

Сподели този отговор


Линк към този отговор
Сподели в други сайтове

Здравейте,колеги формата които пускам е mp4 и с AV формат съм пробвал който и сериал да пусна трагваси звук и картина,а на фюлм само картина като формата на сериалите е mp4.Ще погледна книшката и ще докладвам

 

Здравейте. Аз също си купих декодер и имах същият проблем. Чето търсих по кннижката но нищо. Аз лично пробвах със xvid филм но има картина а звукът го няма така ,че пробвай с друг формат. :)

Сподели този отговор


Линк към този отговор
Сподели в други сайтове

Jonov ви е отговорил, не подържан аудио формат най-вероятно DTS, гледайте да сваляте филми които са dolbi digital, това разбира се ограничав сериозно избора особено на HD рипове.


Сподели този отговор


Линк към този отговор
Сподели в други сайтове

Здравейте,ще пробвам сас друг формат но вапроса като сериала е mp4 или AV всичко си върви звук и картина,а ако е фюлм пак сащия формат звука го няма а картина перфектна ако може някой да одговори защо поне да си го обиясним да знаем защо става така.Благодаря ви

Сподели този отговор


Линк към този отговор
Сподели в други сайтове
публикувано (редактирано)

mp4 е контейнер, филм който е мп4 може да е с най-различни аудио формати(съществуват десетки такива)- за това е хубаво да се знае самото устройство кои от тях поддържа. 99% от сериалите(а и всички останали-било то филми или клипове) които са mp4 са в AAC аудио формат.  Преглеждаш nfo файла там трябва да има нужната информация.

Редактирано от spielberg (преглед на промените)

Сподели този отговор


Линк към този отговор
Сподели в други сайтове

Здравейте колеги един от сериалите който трагват без проблем е с ALDIO това

Audio      Format : MPEG Audio      Format version : Version 1      Format profile : Layer 3      Codec ID : 55      Codec ID/Hint : MP3      Duration : 43mn 7s      Bit rate mode : Variable      Bit rate : 118 Kbps      Minimum bit rate : 32.0 Kbps      Channel(s) : 2 channels      Sampling rate : 48.0 KHz      Resolution : 16 bits      Stream size : 36.3 MiB (10%)      Alignment : Aligned on interleaves      Interleave, duration : 24 ms (0.58 video frame)      Interleave, preload duration : 295 ms      Writing library : LAME3.97       Encoding settings : VBR (rh)

Със този тип алдио декодера си даева звук и чудесна картина,а формата който нямам ALDIO е този единият от фюлмите които пробвах да подкарам звука нерзбирам много какво пише затова се допитвам до вас приятели

AudioID                                       : 1Format                                   : MPEG AudioFormat version                           : Version 1Format profile                           : Layer 3Mode                                     : Joint stereoCodec ID                                 : 55Codec ID/Hint                            : MP3Duration                                 : 1h 49mnBit rate mode                            : ConstantBit rate                                 : 128 KbpsChannel(s)                               : 2 channelsSampling rate                            : 48.0 KHzCompression mode                         : LossyStream size                              : 100 MiB (13%)Alignment                                : Split accross interleavesInterleave, duration                     : 42 ms (1.00 video frame)Interleave, preload duration             : 500 ms

Сподели този отговор


Линк към този отговор
Сподели в други сайтове

Регистрирайте се или влезете в профила си за да коментирате

Трябва да имате регистрация за да може да коментирате това

Регистрирайте се

Създайте нова регистрация в нашия форум. Лесно е!

Нова регистрация

Вход

Имате регистрация? Влезте от тук.

Вход

×

Информация

Поставихме бисквитки на устройството ви за най-добро потребителско изживяване. Можете да промените настройките си за бисквитки, или в противен случай приемаме, че сте съгласни с нашите условия за ползване.