Премини към съдържанието

Препоръчан отговор


Здравейте,имам следния проблем,по принцип си имам звук на всичко,хроума,игрите и т.н,но когато пусна филм от Медиа Плейъра или от,която и друга програма да е няма звук,моля ви за помощ,понеже от сайтове качеството не е хубаво. Благодаря предварително на Уиндоус 10 съм! :) 

Сподели този отговор


Линк към този отговор
Сподели в други сайтове

Няма инсталирани кодеци, затова не се чува звук. Може да е klite codec standard
Или да се ползва плеър с вградени кодеци.

Сподели този отговор


Линк към този отговор
Сподели в други сайтове

Дай точна информация за кодека, който филма ползва и това, което си инсталирал. С кои плеъри тестваш и какво дава като информация за аудио потока?

Сподели този отговор


Линк към този отговор
Сподели в други сайтове
преди 3 минути, Raze написа:

Дай точна информация за кодека, който филма ползва

😂
Ти сериозно ли? И как предлагаш да стане това? Кой ще извлече информация за необходимия кодек?

преди 40 минути, Tosho55 написа:

която и друга програма да е

Например?

Сподели този отговор


Линк към този отговор
Сподели в други сайтове

Грешка. Имах в предвид видео формата, в който е кодиран файла.


Сподели този отговор


Линк към този отговор
Сподели в други сайтове
публикувано (редактирано)

Грешка - може би имаш предвид разширението на файла, т.е. на контейнера!
По принцип Windows 10 има базова поддръжка на възпроизвеждане на аудио/видео файлове.
Остава @Tosho55 да даде допълнителна информация.

Редактирано от DarkEdge (преглед на промените)

Сподели този отговор


Линк към този отговор
Сподели в други сайтове

Имам в предвид примерно това:

General
Complete name               : C:\neshto_si.mp4
Format                      : MPEG-4
Format profile              : Base Media
Codec ID                    : isom (isom/iso2/avc1/mp41)
File size                   : 16.8 MiB
Duration                    : 2 min 54 s
Overall bit rate            : 809 kb/s
Writing application         : Lavf58.21.100

Video
ID                          : 1
Format                      : AVC
Format/Info                 : Advanced Video Codec
Format profile              : Main@L3.1
Format settings             : CABAC / 3 Ref Frames
Format settings, CABAC      : Yes
Format settings, ReFrames   : 3 frames
Codec ID                    : avc1
Codec ID/Info               : Advanced Video Coding
Duration                    : 2 min 54 s
Bit rate                    : 672 kb/s
Width                       : 1 280 pixels
Height                      : 720 pixels
Display aspect ratio        : 16:9
Frame rate mode             : Constant
Frame rate                  : 29.970 (30000/1001) FPS
Color space                 : YUV
Chroma subsampling          : 4:2:0
Bit depth                   : 8 bits
Scan type                   : Progressive
Bits/(Pixel*Frame)          : 0.024
Stream size                 : 14.0 MiB (83%)
Title                       : ISO Media file produced by Google Inc. Created on: 12/20/2018.
Color range                 : Limited
Color primaries             : BT.709
Transfer characteristics    : BT.709
Matrix coefficients         : BT.709
Codec configuration box     : avcC

Audio
ID                          : 2
Format                      : AAC LC
Format/Info                 : Advanced Audio Codec Low Complexity
Codec ID                    : mp4a-40-2
Duration                    : 2 min 54 s
Bit rate mode               : Constant
Bit rate                    : 128 kb/s
Channel(s)                  : 2 channels
Channel layout              : L R
Sampling rate               : 44.1 kHz
Frame rate                  : 43.066 FPS (1024 SPF)
Compression mode            : Lossy
Stream size                 : 2.66 MiB (16%)
Title                       : ISO Media file produced by Google Inc. Created on: 12/20/2018.
Language                    : English
Default                     : Yes
Alternate group             : 1

http://mediaarea.net/en/MediaInfo

Сподели този отговор


Линк към този отговор
Сподели в други сайтове

Как да ви ги дам тези неща,от които се нуждаете не съм много запознат с компютрите :)

Пробвах и с Windows Media Player и Movies & Tv и в двата формата няма звук

Сподели този отговор


Линк към този отговор
Сподели в други сайтове

По-горе ти е дадена връзка за кодеци, отиваш, теглиш, инсталираш, тестваш и пиши пак какво е станало след това.

Сподели този отговор


Линк към този отговор
Сподели в други сайтове
преди 9 минути, Raze написа:

Имам в предвид примерно това:


General
Complete name               : C:\neshto_si.mp4
Format                      : MPEG-4
Format profile              : Base Media
Codec ID                    : isom (isom/iso2/avc1/mp41)
File size                   : 16.8 MiB
Duration                    : 2 min 54 s
Overall bit rate            : 809 kb/s
Writing application         : Lavf58.21.100

Video
ID                          : 1
Format                      : AVC
Format/Info                 : Advanced Video Codec
Format profile              : Main@L3.1
Format settings             : CABAC / 3 Ref Frames
Format settings, CABAC      : Yes
Format settings, ReFrames   : 3 frames
Codec ID                    : avc1
Codec ID/Info               : Advanced Video Coding
Duration                    : 2 min 54 s
Bit rate                    : 672 kb/s
Width                       : 1 280 pixels
Height                      : 720 pixels
Display aspect ratio        : 16:9
Frame rate mode             : Constant
Frame rate                  : 29.970 (30000/1001) FPS
Color space                 : YUV
Chroma subsampling          : 4:2:0
Bit depth                   : 8 bits
Scan type                   : Progressive
Bits/(Pixel*Frame)          : 0.024
Stream size                 : 14.0 MiB (83%)
Title                       : ISO Media file produced by Google Inc. Created on: 12/20/2018.
Color range                 : Limited
Color primaries             : BT.709
Transfer characteristics    : BT.709
Matrix coefficients         : BT.709
Codec configuration box     : avcC

Audio
ID                          : 2
Format                      : AAC LC
Format/Info                 : Advanced Audio Codec Low Complexity
Codec ID                    : mp4a-40-2
Duration                    : 2 min 54 s
Bit rate mode               : Constant
Bit rate                    : 128 kb/s
Channel(s)                  : 2 channels
Channel layout              : L R
Sampling rate               : 44.1 kHz
Frame rate                  : 43.066 FPS (1024 SPF)
Compression mode            : Lossy
Stream size                 : 2.66 MiB (16%)
Title                       : ISO Media file produced by Google Inc. Created on: 12/20/2018.
Language                    : English
Default                     : Yes
Alternate group             : 1

http://mediaarea.net/en/MediaInfo

 

etetete.png

ivae.png

А мерси много,с тва K-Lite Codec имат звук,благодаря за помощта! :) 

Сподели този отговор


Линк към този отговор
Сподели в други сайтове

Трябва ти кодек за DTS/AC3. Отиди на горната връзка, изтегли си пакета с кодеци и го инсталирай, след трябва всичко да работи:

преди 36 минути, DarkEdge написа:

Няма инсталирани кодеци, затова не се чува звук. Може да е klite codec standard
Или да се ползва плеър с вградени кодеци.

 

Сподели този отговор


Линк към този отговор
Сподели в други сайтове

Не е ли по-добре да сложи VLC той си е с вградени кодеци,така с всеки формат ли да тегли кодеци?

Сподели този отговор


Линк към този отговор
Сподели в други сайтове

Ами аз ползвам от над 7-8 години "k-lite mega codec pack" и "media player classic", никога не ми се е случвало да тегля за нещо допълнителен кодек. Така че ако се изтегли горния пакет не би трябвало също да има проблеми.

Сподели този отговор


Линк към този отговор
Сподели в други сайтове
публикувано (редактирано)
преди 56 минути, Raze написа:

Пак от 10 кладенеца вода носим, а?
media info е е част от klite.
Та какъв е резонът първо да го тегли/инсталира и после отново да го прави с пакета кодеци.

Редактирано от DarkEdge (преглед на промените)

Сподели този отговор


Линк към този отговор
Сподели в други сайтове

Давам го като пример как да се извлече информацията от видео/аудио файл. Има и други начини, това просто ми е инсталирано. Все пак чакаме автора да инсталира пакета, който ти си му предложил и да каже дали всичко е наред, но може да си останем и с чакането само.

Сподели този отговор


Линк към този отговор
Сподели в други сайтове
преди 1 час, Tosho55 написа:

А мерси много,с тва K-Lite Codec имат звук,благодаря за помощта! :) 

 

преди 3 минути, Raze написа:

Все пак чакаме автора да инсталира пакета, който ти си му предложил

 

Сподели този отговор


Линк към този отговор
Сподели в други сайтове

То от толкова картинки текста се е изгубил :)

Сподели този отговор


Линк към този отговор
Сподели в други сайтове
преди 44 минути, Слави Маринов написа:

така с всеки формат ли да тегли кодеци?

Ти серизно ли? Б@си простотията! Извинявай, ама никак не се сдържах!
И що трябва да е vlc точно? Що да не е splayer или km player  или още поне 10 безплатни плейъра с вградени кодеци? 

Това по-долу дали не дава отговор? И нима media player classic,  който е от пакета klite няма да върши повече работа за простото възпроизвеждане?

преди 1 час, DarkEdge написа:

Няма инсталирани кодеци, затова не се чува звук. Може да е klite codec standard
Или да се ползва плеър с вградени кодеци.

 

Сподели този отговор


Линк към този отговор
Сподели в други сайтове
преди 1 час, DarkEdge написа:

И що трябва да е vlc точно?

Щом не се сещат, ще ти кажа-защото е най-добрият(и то не по мое мнение)и е класи над споменатия плеър!Има още 10тина плеъри с вградени кодеци-да,всичките ли трябваше да изреждам?

Сподели този отговор


Линк към този отговор
Сподели в други сайтове
преди 3 часа, Слави Маринов написа:

с всеки формат ли да тегли кодеци

Нещо удобно заобикаляш неинформираността си!
Освен това - ако не си прочел, авторът ВЕЧЕ има звук. А ти просто публикуваш поредния ненужен пост.

Сподели този отговор


Линк към този отговор
Сподели в други сайтове
преди 5 минути, DarkEdge написа:

Нещо удобно заобикаляш неинформираността си!
Освен това - ако не си прочел, авторът ВЕЧЕ има звук. А ти просто публикуваш поредния ненужен пост.

Отговорих на теб по-скоро относно плеърите и качествата им,понеже си много информиран,но питаш защо съм предложил именно този!

Сподели този отговор


Линк към този отговор
Сподели в други сайтове

Добавете отговор

Можете да публикувате отговор сега и да се регистрирате по-късно. Ако имате регистрация, влезте в профила си за да публикувате от него.

Гост
Напишете отговор в тази тема...

×   Вмъкнахте текст, който съдържа форматиране.   Премахни форматирането на текста

  Разрешени са само 75 емотикони.

×   Съдържанието от линка беше вградено автоматично.   Премахни съдържанието и покажи само линк

×   Съдържанието, което сте написали преди беше възстановено..   Изтрий всичко

×   You cannot paste images directly. Upload or insert images from URL.


×
×
  • Добави ново...

Информация

Поставихме бисквитки на устройството ви за най-добро потребителско изживяване. Можете да промените настройките си за бисквитки, или в противен случай приемаме, че сте съгласни с нашите условия.