Премини към съдържанието
ozzy1

Как се създава "cue" файл

    Препоръчан отговор


    Попадна ми музика във формат ".ape", един файл, но за съжаление без "cue".

    Не искам да разделям файла, но без "cue" не мога да намирам песните. Опитвах

    да създам такъв файл, но нещо не ми се удава. Замествах, копирах, смятах, ползвах

    и програмата "Burrrn" - тя има нещо такова, но така и не стана. Моля, ако някой може,

    нека помогне!

    Сподели този отговор


    Линк към този отговор
    Сподели в други сайтове

    Намери един готов и го преправи в notepad. Проблема е че е нужно да знаеш доста инфо за албума , продимно времетраенето на парчетата.

    Мисля , че живота ти ще бъде далеч по-лесен ако се върнеш на мястото от където си го свалил и потърсиш/попиташ за файла.

    Редактирано от spacedude (преглед на промените)

    Сподели този отговор


    Линк към този отговор
    Сподели в други сайтове

    Това си го създава една програмка,дето корми от аудио СД-то.приблизително така изглежда:

    PERFORMER "Cynic"
    
    TITLE "Focus"
    
    FILE "CYNIC-FOCUS.ape" WAVE
    
      TRACK 01 AUDIO
    
    	TITLE "Veil of Maya"
    
    	PERFORMER "Cynic"
    
    	FLAGS DCP
    
    	INDEX 01 00:00:00
    
      TRACK 02 AUDIO
    
    	TITLE "Celestial Voyage"
    
    	PERFORMER "Cynic"
    
    	FLAGS DCP
    
    	INDEX 00 05:19:15
    
    	INDEX 01 05:23:30
    
      TRACK 03 AUDIO
    
    	TITLE "The Eagle Nature"
    
    	PERFORMER "Cynic"
    
    	FLAGS DCP
    
    	INDEX 00 09:00:17
    
    	INDEX 01 09:03:60
    
      TRACK 04 AUDIO
    
    	TITLE "Sentiment"
    
    	PERFORMER "Cynic"
    
    	FLAGS DCP
    
    	INDEX 00 12:31:45
    
    	INDEX 01 12:34:40
    
      TRACK 05 AUDIO
    
    	TITLE "I'm But a Wave To..."
    
    	PERFORMER "Cynic"
    
    	FLAGS DCP
    
    	INDEX 01 16:58:32
    
      TRACK 06 AUDIO
    
    	TITLE "Urboric Forms"
    
    	PERFORMER "Cynic"
    
    	FLAGS DCP
    
    	INDEX 00 22:26:35
    
    	INDEX 01 22:29:00
    
      TRACK 07 AUDIO
    
    	TITLE "Textures"
    
    	PERFORMER "Cynic"
    
    	FLAGS DCP
    
    	INDEX 00 25:57:28
    
    	INDEX 01 26:01:42
    
      TRACK 08 AUDIO
    
    	TITLE "How Could I"
    
    	PERFORMER "Cynic"
    
    	FLAGS DCP
    
    	INDEX 00 30:41:25
    
    	INDEX 01 30:43:70

    Ако има значение програмата с която се правят е Exact Audio Copy

    най-добре питай във форума на тракера/сайта откъдето си изтеглил имиджа

    Редактирано от манол (преглед на промените)

    Сподели този отговор


    Линк към този отговор
    Сподели в други сайтове
    Намери един готов и го преправи в notepad. Проблема е че е нужно да знаеш доста инфо за албума , продимно времетраенето на парчетата.

    Мисля , че живота ти ще бъде далеч по-лесен ако се върнеш на мястото от където си го свалил и потърсиш/попиташ за файла.

    Всичко това ми е ясно. Знам и как изглежда "cue" през "notepad". Ясно ми е, че файла се прави с ЕАС, a и с още разни други програми, но само когато се рипва от СД, Знам, че трябва да търся "cue" oт там дето е свален файла, но не знам откъде свален - това е проблема.

    Затова моля за конкретен отговор, не за предложения - казах вече, най-лесно е да се раздели файла, има доста програми за това, знам дори и всичко за песните, как се казват, колко са дълги и т.н. - но не знам как да създам "cue" файл (т.е. - знам, но не ми върши работа - не мога да вкарам данните коректно, така че да се разчитат от плейъра, а на мен това ми трябва!

    Сподели този отговор


    Линк към този отговор
    Сподели в други сайтове

    Ами няма друг начин - или ползваш кода, който ти е дал манол , или се побъркваш от търсене в гугъл " име на албума.cue"


    Сподели този отговор


    Линк към този отговор
    Сподели в други сайтове

    Аз създавам *.cue с CloneCD, но незнам дали ще ти помогне...не ми се е случвала подобна ситуация!

    17761164na8.jpg

    Опитай с тази програма:

    CDRCue 2004 - пробна версия!

    cue2k4.gif

    http://www.dcsoft.com/ftp/CUE.EXE

    Можеш да погледнеш и тук:

    http://www.jakeludington.com/ask_jake/2006..._cue_sheet.html

    Редактирано от B-boy[StyLe] (преглед на промените)

    Сподели този отговор


    Линк към този отговор
    Сподели в други сайтове

    Опитай с тази програма:

    http://www.dcsoft.com/ftp/CUE.EXE

    Можеш да погледнеш и тук:

    http://www.jakeludington.com/ask_jake/2006..._cue_sheet.html

    Благодаря ти B-boy[styLe]! Струва ми се, че и двете програмки ще свършат работа, но все още не мога да вляза в час - нещо пак не се сработва, но това вече си е мой прблем, надявам се да се оправя!

    Сподели този отговор


    Линк към този отговор
    Сподели в други сайтове

    виж , има и нещо друго. Преди време бях полудял с един .cue файл и прекарах доста време по него , докато не разбера , че версията на уинампа просто не сработваше с плъгина ми за .cue файлове.

    Сподели този отговор


    Линк към този отговор
    Сподели в други сайтове

    Регистрирайте се или влезете в профила си за да коментирате

    Трябва да имате регистрация за да може да коментирате това

    Регистрирайте се

    Създайте нова регистрация в нашия форум. Лесно е!

    Нова регистрация

    Вход

    Имате регистрация? Влезте от тук.

    Вход


    ×

    Информация

    Този сайт използва бисквитки (cookies), за най-доброто потребителско изживяване. С използването му, вие приемате нашите Условия за ползване.